Enable / Włącz Javascript
 Widok 
 Kategorie 
 Nitro Torrent w sieci 
 Top 10 użytkowników 
 CHIRURDZY - GREYS ANATOMY S15E03 [720P] [AMZN] [WEB-DL] [DD2.0] [H264-RALF] [LEKTOR PL]

CHIRURDZY - GREYS ANATOMY S15E03 [720P] [AMZN] [WEB-DL] [DD2.0] [H264-RALF] [LEKTOR PL]
Kategoria: » » » »
Dodane: 07/12/2018
Rozmiar: 1.20 GB
Uploader: tomysparow559 (10)
seed(ów): 5
leecher(ów): 10
Pobrane: 40
Komentarzy: 0
Pobierz Torrent Pobierz Torrent
Pobierz [Magnet] Pobierz [Magnet]

Obserwuj
Raportuj
==================
...::: INFO :::...
==================

Ocena: IMDB - 7.6/10 (197.968) | Filmweb - 7.9/10 (113.340)
Produkcja: USA
Stacja telewizyjna: ABC
Gatunek: Dramat
Czas trwania: 43 min.
Premiera Sezonu 15: 26.09.2018 r.
Twórcy: Shonda Rhimes

==================
...::: OPIS :::...
==================

Lekarze z Grey Sloan Memorial wspólnie przeżywają zawodowe i osobiste problemy. Ich wzajemne relacje często wykraczają poza zwykłe służbowe kontakty. Starają się też pomagać swoim pacjentom nie tylko w kwestiach medycznych.

==============
...::: OBSADA :::...
==============

Ellen Pompeo ... Dr. Meredith Grey
Justin Chambers ... Dr. Alex Karev
Chandra Wilson ... Dr. Miranda Bailey
James Pickens Jr. ... Dr. Richard Webber
Kevin McKidd ... Dr. Owen Hunt
Patrick Dempsey ... Dr. Derek Shepherd
Sara Ramirez ... Dr. Callie Torres
Jessica Capshaw ... Dr. Arizona Robbins
Bokhee An ... Nurse Bokhee

=======================
...::: DANE TECHNICZNE :::...
=======================

Format : Matroska
Format version : Version 4
File size : 1.20 GiB
Duration : 43 min 3 s
Overall bit rate : 3 993 kb/s
Encoded date : UTC 2018-11-29 18:51:11
Writing application : mkvmerge v10.0.0 ('To Drown In You') 32bit
Writing library : libebml v1.3.4 + libmatroska v1.4.5

Video
ID : 2
Format : AVC
Format/INFO : Advanced Video Codec
Format profile : High@L4.1
Format settings : CABAC / 4 Ref Frames
Format settings, CABAC : Yes
Format settings, ReFrames : 4 frames
Codec ID : V_MPEG4/ISO/AVC
Duration : 43 min 3 s
Bit rate : 3 607 kb/s
Nominal bit rate : 3 800 kb/s
Width : 1 280 pixels
Height : 720 pixels
Display aspect ratio : 16:9
Frame rate mode : Constant
Frame rate : 23.976 (24000/1001) FPS
Original frame rate : 25.000 FPS
Color space : YUV
Chroma subsampling : 4:2:0
Bit depth : 8 bits
Scan type : Progressive
Bits/(Pixel*Frame) : 0.163
Stream size : 1.08 GiB (90%)
Writing library : x264 core 148 r2744 b97ae06
Encoding settings : cabac=1 / ref=3 / deblock=1:0:0 / analyse=0x3:0x111 / me=hex / subme=5 / psy=1 / psy_rd=1.00:0.00 / mixed_ref=1 / me_range=16 / chroma_me=1 / trellis=0 / 8x8dct=1 / cqm=0 / deadzone=21,11 / fast_pskip=0 / chroma_qp_offset=0 / threads=12 / lookahead_threads=3 / sliced_threads=0 / nr=0 / decimate=1 / interlaced=0 / bluray_compat=0 / constrained_intra=0 / bframes=3 / b_pyramid=2 / b_adapt=1 / b_bias=0 / direct=3 / weightb=1 / open_gop=0 / weightp=1 / keyint=250 / keyint_min=25 / scenecut=40 / intra_refresh=0 / rc_lookahead=40 / rc=cbr / mbtree=0 / bitrate=3800 / ratetol=2.0 / qcomp=0.50 / qpmin=0 / qpmax=69 / qpstep=4 / vbv_maxrate=3800 / vbv_bufsize=78125 / nal_hrd=none / filler=0 / ip_ratio=1.40 / pb_ratio=1.30 / aq=0
Language : English
Default : Yes
Forced : Yes
Color range : Limited
Matrix coefficients : BT.709

Audio
ID : 1
Format : AC-3
Format/INFO : Audio Coding 3
Commercial name : Dolby Digital
Codec ID : A_AC3
Duration : 43 min 3 s
Bit rate mode : Constant
Bit rate : 384 kb/s
Channel(s) : 2 channels
Channel layout : L R
Sampling rate : 48.0 kHz
Frame rate : 31.250 FPS (1536 SPF)
Bit depth : 16 bits
Compression mode : Lossy
Stream size : 118 MiB (10%)
Language : Polish
Service kind : Complete Main
Default : Yes
Forced : No
Dostępne napisy
Brak napisów
Szczegóły torrenta
Tracker http://tracker2.itzmx.com:6961/announce
Multitracker [ Pokaż ]
Kategoria: » » » » [Zgłoś błąd]
Dodane 07-12-2018
Podziękowali:
0 użytkowników 
Podziękuj!
Pokaż / Ukryj pliki:
Nazwa pliku Rozmiar
! Chcesz mieć TO szybciej - zapraszamy-KLIK.url 0.11 KB
! Want YOU more -CLIK.url 0.11 KB
Zapraszamy-KLIK.url 0.11 KB
LoGo.png 202.81 KB
G.A.S15E03.PL.720p.mkv 1.20 GB
5 plików
Brak komentarzy...
Sitemap