Enable / Włącz Javascript
 Widok 
 Kategorie 
 Nitro Torrent w sieci 
 Top 10 użytkowników 
 MARS *2016* S02E03 [720p] [WEBRip] [x264-666] [Lektor PL]

MARS *2016* S02E03 [720p] [WEBRip] [x264-666] [Lektor PL]
Kategoria: » » » »
Dodane: 29/11/2018
Rozmiar: 1.06 GB
Uploader: tomysparow559 (10)
seed(ów): 5
leecher(ów): 9
Pobrane: 97
Komentarzy: 0
Pobierz Torrent Pobierz Torrent
Pobierz [Magnet] Pobierz [Magnet]

Obserwuj
Raportuj
==================
...::: INFO :::...
==================

Produkcja: USA
Premiera: 13 listopada 2016 - Świat
Gatunek: Dramat, Przygodowy, Sci-Fi
Reżyseria: Everardo Valerio Gout
Scenariusz: Everardo Valerio Gout

==================
...::: OPIS :::...
==================

Jest rok 2033 i pierwsza załogowa wyprawa na Marsa staje się rzeczywistością. Podczas gdy zegar odlicza ostatnie 90 sekund do lądowania, astronauci przeżywają emocjonujące chwile przed postawieniem pierwszego kroku na Czerwonej Planecie. Pomimo profesjonalnego treningu i dostępnej wiedzy, załoga Daedalusa musi otrzeć się o skraj ludzkich możliwości, by stawić czoła wyzwaniom pierwszej kolonii na Marsie. Osadzona zarówno w teraźniejszości jak i przyszłości, globalna miniseria MARS, łączy elementy filmu fabularnego oraz dokumentu przedstawionego poprzez serię wywiadów ze współczesnymi znawcami nauki, techniki i kosmosu, dzięki którym aktualna misja na Marsa będzie miała szansę powodzenia.

==============
...::: OBSADA :::...
==============

Jihae Kim ... Hana Seung
Ben Cotton ... Ben Sawyer
Alberto Ammann ... Javier Delgado
Clémentine Poidatz ... Amelie Durand

=======================
...::: DANE TECHNICZNE :::...
=======================

Format                         : Matroska
Format version                 : Version 4
File size                      : 1.06 GiB
Duration                       : 46 min 58 s
Overall bit rate               : 3 244 kb/s
Movie name                     : Mars.2016.S02E03.Darkness.Falls.PL.720p.AMZN.WEB-DL.x264-666
Encoded date                   : UTC 2018-11-28 06:29:43 / UTC 2018-11-28T05:20:37Z
Writing application            : mkvmerge v28.1.0 ('Morning Child') 64-bit
Writing library                : libebml v1.3.6 + libmatroska v1.4.9 / Lavf57.7.2

Video
ID                             : 1
Format                         : AVC
Format/Info                    : Advanced Video Codec
Format profile                 : High@L4.1
Format settings                : CABAC / 4 Ref Frames
Format settings, CABAC         : Yes
Format settings, ReFrames      : 4 frames
Codec ID                       : V_MPEG4/ISO/AVC
Duration                       : 46 min 58 s
Bit rate                       : 3 000 kb/s
Width                          : 1 280 pixels
Height                         : 720 pixels
Display aspect ratio           : 16:9
Frame rate mode                : Constant
Frame rate                     : 23.976 (24000/1001) FPS
Color space                    : YUV
Chroma subsampling             : 4:2:0
Bit depth                      : 8 bits
Scan type                      : Progressive
Bits/(Pixel*Frame)             : 0.136
Stream size                    : 1 003 MiB (92%)
Title                          : Mars.2016.S02E03.Darkness.Falls.PL.720p.AMZN.WEB-DL.x264-666
Writing library                : x264 core 148 r2708 86b7198
Encoding settings              : cabac=1 / ref=1 / deblock=1:-1:-1 / analyse=0x3:0x3 / me=dia / subme=1 / psy=1 / psy_rd=1.00:0.15 / mixed_ref=0 / me_range=16 / chroma_me=1 / trellis=0 / 8x8dct=1 / cqm=0 / deadzone=21,11 / fast_pskip=1 / chroma_qp_offset=0 / threads=6 / lookahead_threads=1 / sliced_threads=0 / nr=0 / decimate=1 / interlaced=0 / bluray_compat=0 / constrained_intra=0 / bframes=3 / b_pyramid=2 / b_adapt=1 / b_bias=0 / direct=1 / weightb=1 / open_gop=0 / weightp=1 / keyint=240 / keyint_min=24 / scenecut=40 / intra_refresh=0 / rc_lookahead=0 / rc=abr / mbtree=0 / bitrate=3000 / ratetol=1.0 / qcomp=0.60 / qpmin=0 / qpmax=69 / qpstep=4 / vbv_maxrate=62500 / vbv_bufsize=78125 / nal_hrd=none / filler=0 / ip_ratio=1.40 / pb_ratio=1.30 / aq=1:1.00
Default                        : Yes
Forced                         : No
Color range                    : Limited
Color primaries                : BT.709
Transfer characteristics       : BT.709
Matrix coefficients            : BT.709

Audio
ID                             : 2
Format                         : AC-3
Format/Info                    : Audio Coding 3
Commercial name                : Dolby Digital
Codec ID                       : A_AC3
Duration                       : 46 min 57 s
Bit rate mode                  : Constant
Bit rate                       : 256 kb/s
Channel(s)                     : 2 channels
Channel layout                 : L R
Sampling rate                  : 48.0 kHz
Frame rate                     : 31.250 FPS (1536 SPF)
Bit depth                      : 16 bits
Compression mode               : Lossy
Stream size                    : 86.0 MiB (8%)
Title                          : Mars.2016.S02E03.Darkness.Falls.PL.720p.AMZN.WEB-DL.x264-666
Language                       : Polish
Service kind                   : Complete Main
Default                        : Yes
Forced                         : No
Dostępne napisy
Brak napisów
Szczegóły torrenta
Tracker http://tracker2.itzmx.com:6961/announce
Multitracker [ Pokaż ]
Kategoria: » » » » [Zgłoś błąd]
Dodane 29-11-2018
Podziękowali:
0 użytkowników 
Podziękuj!
Pokaż / Ukryj pliki:
Nazwa pliku Rozmiar
! Chcesz mieć TO szybciej - zapraszamy-KLIK.url 0.11 KB
! Want YOU more -CLIK.url 0.11 KB
Zapraszamy-KLIK.url 0.11 KB
LoGo.png 202.81 KB
Mars.2016.S02E03.Darkness.Falls.PL.720p.AMZN.WEB-DL.x264-666.mkv 1.06 GB
5 plików
Brak komentarzy...
Sitemap