Enable / Włącz Javascript
 Widok 
 Kategorie 
 Nitro Torrent w sieci 
 Top 10 użytkowników 
 UCIECZKA Z DANNEMORY - ESCAPE AT DANNEMORA S01E03 [480P] [AMZN] [WEB-DL] [X264-666] [LEKTOR PL]

UCIECZKA Z DANNEMORY - ESCAPE AT DANNEMORA S01E03 [480P] [AMZN] [WEB-DL] [X264-666] [LEKTOR PL]
Kategoria: » » » »
Dodane: 07/12/2018
Rozmiar: 605.87 MB
Uploader: tomysparow559 (10)
seed(ów): 31
leecher(ów): 24
Pobrane: 90
Komentarzy: 0
Pobierz Torrent Pobierz Torrent
Pobierz [Magnet] Pobierz [Magnet]

Obserwuj
Raportuj
==================
...::: INFO :::...
==================

Ocena: IMDB - 8.1/10 (36), Filmweb - 7.0/10 (1)
Produkcja: USA
Gatunek: Dramat
Czas trwania: 63 min.
Stacja TV: SHOWTIME
Premiera: 18.11.2018 - Świat
Twórcy: Brett Johnson, Michael Tolkin

==================
...::: OPIS :::...
==================

Prawdziwa historia dwóch więźniów, którzy uciekli z jednego z najlepiej strzeżonych więzień w stanie Nowy Jork.

==============
...::: OBSADA :::...
==============

Benicio Del Toro ... Richard Matt
Patricia Arquette ... Tilly Mitchell
Paul Dano ... David Sweat
Bonnie Hunt ... Catherine Scott
Eric Lange ... Lyle Mitchell
David Morse ... Gene Palmer
James E. Facteau ... CERT

=======================
...::: DANE TECHNICZNE :::...
=======================


Format : Matroska
Format version : Version 4
File size : 649 MiB
Duration : 1 h 3 min
Overall bit rate : 1 427 kb/s
Movie name : Escape.at.Dannemora.S01E01.Part.1.PL.480p.WEBRip.x264-666
Encoded date : UTC 2018-11-19 10:27:30 / UTC 2018-11-19T09:43:18Z
Writing application : mkvmerge v9.0.1 ('Obstacles') 64bit
Writing library : libebml v1.3.3 + libmatroska v1.4.4 / Lavf55.12.0

Video
ID : 1
Format : AVC
Format/INFO : Advanced Video Codec
Format profile : High@L4
Format settings : CABAC / 4 Ref Frames
Format settings, CABAC : Yes
Format settings, ReFrames : 4 frames
Codec ID : V_MPEG4/ISO/AVC
Duration : 1 h 3 min
Bit rate : 1 300 kb/s
Width : 854 pixels
Height : 358 pixels
Display aspect ratio : 2.40:1
Frame rate mode : Constant
Frame rate : 23.976 (24000/1001) FPS
Color space : YUV
Chroma subsampling : 4:2:0
Bit depth : 8 bits
Scan type : Progressive
Bits/(Pixel*Frame) : 0.177
Stream size : 576 MiB (89%)
Title : Escape.at.Dannemora.S01E01.Part.1.PL.480p.WEBRip.x264-666
Writing library : x264 core 142 r2479 dd79a61
Encoding settings : cabac=1 / ref=1 / deblock=1:-1:-1 / analyse=0x3:0x113 / me=hex / subme=2 / psy=1 / psy_rd=1.00:0.15 / mixed_ref=0 / me_range=16 / chroma_me=1 / trellis=0 / 8x8dct=1 / cqm=0 / deadzone=21,11 / fast_pskip=1 / chroma_qp_offset=0 / threads=12 / lookahead_threads=2 / sliced_threads=0 / nr=0 / decimate=1 / interlaced=0 / bluray_compat=0 / constrained_intra=0 / bframes=3 / b_pyramid=2 / b_adapt=1 / b_bias=0 / direct=1 / weightb=1 / open_gop=0 / weightp=1 / keyint=240 / keyint_min=24 / scenecut=40 / intra_refresh=0 / rc_lookahead=10 / rc=abr / mbtree=1 / bitrate=1300 / ratetol=1.0 / qcomp=0.60 / qpmin=0 / qpmax=69 / qpstep=4 / vbv_maxrate=25000 / vbv_bufsize=31250 / nal_hrd=none / filler=0 / ip_ratio=1.40 / aq=1:1.00
Default : Yes
Forced : No
Color range : Limited
Color primaries : BT.709
Transfer characteristics : BT.709
Matrix coefficients : BT.709

Audio
ID : 2
Format : AC-3
Format/INFO : Audio Coding 3
Commercial name : Dolby Digital
Codec ID : A_AC3
Duration : 1 h 3 min
Bit rate mode : Constant
Bit rate : 160 kb/s
Channel(s) : 2 channels
Channel layout : L R
Sampling rate : 48.0 kHz
Frame rate : 31.250 FPS (1536 SPF)
Bit depth : 16 bits
Compression mode : Lossy
Delay relative to video : -83 ms
Stream size : 72.8 MiB (11%)
Title : Escape.at.Dannemora.S01E01.Part.1.PL.480p.WEBRip.x264-666
Language : Polish
Service kind : Complete Main
Default : Yes
Forced : No
Dostępne napisy
Brak napisów
Szczegóły torrenta
Tracker http://tracker2.itzmx.com:6961/announce
Multitracker [ Pokaż ]
Kategoria: » » » » [Zgłoś błąd]
Dodane 07-12-2018
Podziękowali:
0 użytkowników 
Podziękuj!
Pokaż / Ukryj pliki:
Nazwa pliku Rozmiar
! Chcesz mieć TO szybciej - zapraszamy-KLIK.url 0.11 KB
! Want YOU more -CLIK.url 0.11 KB
Zapraszamy-KLIK.url 0.11 KB
LoGo.png 202.81 KB
E.at.D.S01E03.Part.3.PL.480p.AMZN.WEBRip.x264-666.mkv 605.68 MB
5 plików
Brak komentarzy...
Sitemap